  0
SECTION
  2
HEADER
  9
$ACADVER
  1
AC1021
  9
$ACADMAINTVER
 70
     1
  9
$DWGCODEPAGE
  3
ANSI_1252
  9
$LASTSAVEDBY
  1
henry
  9
$INSBASE
 10
0.0
 20
0.0
 30
0.0
  9
$EXTMIN
 10
758.9736776710193
 20
784.6675246862562
 30
-0.0015258207003583
  9
$EXTMAX
 10
937.1580387831647
 20
902.2399581950672
 30
0.0000000349246037
  9
$LIMMIN
 10
0.0
 20
0.0
  9
$LIMMAX
 10
420.0
 20
297.0
  9
$ORTHOMODE
 70
     0
  9
$REGENMODE
 70
     1
  9
$FILLMODE
 70
     1
  9
$QTEXTMODE
 70
     0
  9
$MIRRTEXT
 70
     0
  9
$LTSCALE
 40
1.0
  9
$ATTMODE
 70
     1
  9
$TEXTSIZE
 40
2.5
  9
$TRACEWID
 40
1.0
  9
$TEXTSTYLE
  7
Lorient
  9
$CLAYER
  8
0
  9
$CELTYPE
  6
ByLayer
  9
$CECOLOR
 62
   256
  9
$CELTSCALE
 40
1.0
  9
$DISPSILH
 70
     0
  9
$DIMSCALE
 40
1.0
  9
$DIMASZ
 40
1.0
  9
$DIMEXO
 40
0.5
  9
$DIMDLI
 40
3.75
  9
$DIMRND
 40
0.0
  9
$DIMDLE
 40
0.0
  9
$DIMEXE
 40
0.5
  9
$DIMTP
 40
0.0
  9
$DIMTM
 40
0.0
  9
$DIMTXT
 40
1.5
  9
$DIMCEN
 40
2.5
  9
$DIMTSZ
 40
0.0
  9
$DIMTOL
 70
     0
  9
$DIMLIM
 70
     0
  9
$DIMTIH
 70
     0
  9
$DIMTOH
 70
     0
  9
$DIMSE1
 70
     0
  9
$DIMSE2
 70
     0
  9
$DIMTAD
 70
     1
  9
$DIMZIN
 70
     8
  9
$DIMBLK
  1

  9
$DIMASO
 70
     1
  9
$DIMSHO
 70
     1
  9
$DIMPOST
  1

  9
$DIMAPOST
  1

  9
$DIMALT
 70
     0
  9
$DIMALTD
 70
     3
  9
$DIMALTF
 40
0.03937007874016
  9
$DIMLFAC
 40
1.0
  9
$DIMTOFL
 70
     1
  9
$DIMTVP
 40
0.0
  9
$DIMTIX
 70
     0
  9
$DIMSOXD
 70
     0
  9
$DIMSAH
 70
     0
  9
$DIMBLK1
  1

  9
$DIMBLK2
  1

  9
$DIMSTYLE
  2
Lorient
  9
$DIMCLRD
 70
     0
  9
$DIMCLRE
 70
     0
  9
$DIMCLRT
 70
     0
  9
$DIMTFAC
 40
1.0
  9
$DIMGAP
 40
0.5
  9
$DIMJUST
 70
     0
  9
$DIMSD1
 70
     0
  9
$DIMSD2
 70
     0
  9
$DIMTOLJ
 70
     0
  9
$DIMTZIN
 70
     8
  9
$DIMALTZ
 70
     0
  9
$DIMALTTZ
 70
     0
  9
$DIMUPT
 70
     0
  9
$DIMDEC
 70
     2
  9
$DIMTDEC
 70
     2
  9
$DIMALTU
 70
     2
  9
$DIMALTTD
 70
     3
  9
$DIMTXSTY
  7
Lorient
  9
$DIMAUNIT
 70
     0
  9
$DIMADEC
 70
     0
  9
$DIMALTRND
 40
0.0
  9
$DIMAZIN
 70
     0
  9
$DIMDSEP
 70
    46
  9
$DIMATFIT
 70
     3
  9
$DIMFRAC
 70
     0
  9
$DIMLDRBLK
  1

  9
$DIMLUNIT
 70
     2
  9
$DIMLWD
 70
    -2
  9
$DIMLWE
 70
    -2
  9
$DIMTMOVE
 70
     0
  9
$DIMFXL
 40
1.0
  9
$DIMFXLON
 70
     0
  9
$DIMJOGANG
 40
0.7853981633974483
  9
$DIMTFILL
 70
     0
  9
$DIMTFILLCLR
 70
     0
  9
$DIMARCSYM
 70
     0
  9
$DIMLTYPE
  6

  9
$DIMLTEX1
  6

  9
$DIMLTEX2
  6

  9
$LUNITS
 70
     2
  9
$LUPREC
 70
     4
  9
$SKETCHINC
 40
1.0
  9
$FILLETRAD
 40
0.0
  9
$AUNITS
 70
     0
  9
$AUPREC
 70
     0
  9
$MENU
  1
.
  9
$ELEVATION
 40
0.0
  9
$PELEVATION
 40
0.0
  9
$THICKNESS
 40
0.0
  9
$LIMCHECK
 70
     0
  9
$CHAMFERA
 40
0.0
  9
$CHAMFERB
 40
0.0
  9
$CHAMFERC
 40
0.0
  9
$CHAMFERD
 40
0.0
  9
$SKPOLY
 70
     0
  9
$TDCREATE
 40
2458423.454939618
  9
$TDUCREATE
 40
2458423.454939618
  9
$TDUPDATE
 40
2458424.390584537
  9
$TDUUPDATE
 40
2458424.390584537
  9
$TDINDWG
 40
0.0568171875
  9
$TDUSRTIMER
 40
0.0568171065
  9
$USRTIMER
 70
     1
  9
$ANGBASE
 50
0.0
  9
$ANGDIR
 70
     0
  9
$PDMODE
 70
     0
  9
$PDSIZE
 40
0.0
  9
$PLINEWID
 40
0.0
  9
$SPLFRAME
 70
     0
  9
$SPLINETYPE
 70
     6
  9
$SPLINESEGS
 70
     8
  9
$HANDSEED
  5
133E
  9
$SURFTAB1
 70
     6
  9
$SURFTAB2
 70
     6
  9
$SURFTYPE
 70
     6
  9
$SURFU
 70
     6
  9
$SURFV
 70
     6
  9
$UCSBASE
  2

  9
$UCSNAME
  2

  9
$UCSORG
 10
0.0
 20
0.0
 30
0.0
  9
$UCSXDIR
 10
1.0
 20
0.0
 30
0.0
  9
$UCSYDIR
 10
0.0
 20
1.0
 30
0.0
  9
$UCSORTHOREF
  2

  9
$UCSORTHOVIEW
 70
     0
  9
$UCSORGTOP
 10
0.0
 20
0.0
 30
0.0
  9
$UCSORGBOTTOM
 10
0.0
 20
0.0
 30
0.0
  9
$UCSORGLEFT
 10
0.0
 20
0.0
 30
0.0
  9
$UCSORGRIGHT
 10
0.0
 20
0.0
 30
0.0
  9
$UCSORGFRONT
 10
0.0
 20
0.0
 30
0.0
  9
$UCSORGBACK
 10
0.0
 20
0.0
 30
0.0
  9
$PUCSBASE
  2

  9
$PUCSNAME
  2

  9
$PUCSORG
 10
0.0
 20
0.0
 30
0.0
  9
$PUCSXDIR
 10
1.0
 20
0.0
 30
0.0
  9
$PUCSYDIR
 10
0.0
 20
1.0
 30
0.0
  9
$PUCSORTHOREF
  2

  9
$PUCSORTHOVIEW
 70
     0
  9
$PUCSORGTOP
 10
0.0
 20
0.0
 30
0.0
  9
$PUCSORGBOTTOM
 10
0.0
 20
0.0
 30
0.0
  9
$PUCSORGLEFT
 10
0.0
 20
0.0
 30
0.0
  9
$PUCSORGRIGHT
 10
0.0
 20
0.0
 30
0.0
  9
$PUCSORGFRONT
 10
0.0
 20
0.0
 30
0.0
  9
$PUCSORGBACK
 10
0.0
 20
0.0
 30
0.0
  9
$USERI1
 70
     0
  9
$USERI2
 70
     0
  9
$USERI3
 70
     0
  9
$USERI4
 70
     0
  9
$USERI5
 70
     0
  9
$USERR1
 40
0.0
  9
$USERR2
 40
0.0
  9
$USERR3
 40
0.0
  9
$USERR4
 40
0.0
  9
$USERR5
 40
0.0
  9
$WORLDVIEW
 70
     1
  9
$SHADEDGE
 70
     3
  9
$SHADEDIF
 70
    70
  9
$TILEMODE
 70
     1
  9
$MAXACTVP
 70
    64
  9
$PINSBASE
 10
0.0
 20
0.0
 30
0.0
  9
$PLIMCHECK
 70
     0
  9
$PEXTMIN
 10
0.0
 20
0.0
 30
0.0
  9
$PEXTMAX
 10
0.0
 20
0.0
 30
0.0
  9
$PLIMMIN
 10
0.0
 20
0.0
  9
$PLIMMAX
 10
12.0
 20
9.0
  9
$UNITMODE
 70
     0
  9
$VISRETAIN
 70
     1
  9
$PLINEGEN
 70
     0
  9
$PSLTSCALE
 70
     1
  9
$TREEDEPTH
 70
  3020
  9
$CMLSTYLE
  2
Standard
  9
$CMLJUST
 70
     0
  9
$CMLSCALE
 40
20.0
  9
$PROXYGRAPHICS
 70
     1
  9
$MEASUREMENT
 70
     1
  9
$CELWEIGHT
370
    -1
  9
$ENDCAPS
280
     0
  9
$JOINSTYLE
280
     0
  9
$LWDISPLAY
290
     0
  9
$INSUNITS
 70
     4
  9
$HYPERLINKBASE
  1

  9
$STYLESHEET
  1

  9
$XEDIT
290
     1
  9
$CEPSNTYPE
380
     0
  9
$PSTYLEMODE
290
     1
  9
$FINGERPRINTGUID
  2
{1E75B674-D3A2-4A5C-A2FC-511D37970D15}
  9
$VERSIONGUID
  2
{C236462B-2804-4F90-8B23-CB6C1C68EF05}
  9
$EXTNAMES
290
     1
  9
$PSVPSCALE
 40
0.0
  9
$OLESTARTUP
290
     0
  9
$SORTENTS
280
   127
  9
$INDEXCTL
280
     0
  9
$HIDETEXT
280
     1
  9
$XCLIPFRAME
290
     0
  9
$HALOGAP
280
     0
  9
$OBSCOLOR
 70
   257
  9
$OBSLTYPE
280
     0
  9
$INTERSECTIONDISPLAY
280
     0
  9
$INTERSECTIONCOLOR
 70
   257
  9
$DIMASSOC
280
     2
  9
$PROJECTNAME
  1

  9
$CAMERADISPLAY
290
     0
  9
$LENSLENGTH
 40
50.0
  9
$CAMERAHEIGHT
 40
0.0
  9
$STEPSPERSEC
 40
2.0
  9
$STEPSIZE
 40
6.0
  9
$3DDWFPREC
 40
2.0
  9
$PSOLWIDTH
 40
5.0
  9
$PSOLHEIGHT
 40
80.0
  9
$LOFTANG1
 40
1.570796326794896
  9
$LOFTANG2
 40
1.570796326794896
  9
$LOFTMAG1
 40
0.0
  9
$LOFTMAG2
 40
0.0
  9
$LOFTPARAM
 70
     7
  9
$LOFTNORMALS
280
     1
  9
$LATITUDE
 40
37.795
  9
$LONGITUDE
 40
-122.394
  9
$NORTHDIRECTION
 40
0.0
  9
$TIMEZONE
 70
 -8000
  9
$LIGHTGLYPHDISPLAY
280
     1
  9
$TILEMODELIGHTSYNCH
280
     1
  9
$CMATERIAL
347
EC
  9
$SOLIDHIST
280
     1
  9
$SHOWHIST
280
     1
  9
$DWFFRAME
280
     2
  9
$DGNFRAME
280
     0
  9
$REALWORLDSCALE
290
     1
  9
$INTERFERECOLOR
 62
     1
  9
$INTERFEREOBJVS
345
F9
  9
$INTERFEREVPVS
346
F6
  9
$CSHADOW
280
     0
  9
$SHADOWPLANELOCATION
 40
0.0
  0
ENDSEC
  0
SECTION
  2
CLASSES
  0
CLASS
  1
ACDBDICTIONARYWDFLT
  2
AcDbDictionaryWithDefault
  3
ObjectDBX Classes
 90
        0
 91
        1
280
     0
281
     0
  0
CLASS
  1
DICTIONARYVAR
  2
AcDbDictionaryVar
  3
ObjectDBX Classes
 90
        0
 91
        3
280
     0
281
     0
  0
CLASS
  1
TABLESTYLE
  2
AcDbTableStyle
  3
ObjectDBX Classes
 90
     4095
 91
        1
280
     0
281
     0
  0
CLASS
  1
MATERIAL
  2
AcDbMaterial
  3
ObjectDBX Classes
 90
     1024
 91
        3
280
     0
281
     0
  0
CLASS
  1
VISUALSTYLE
  2
AcDbVisualStyle
  3
ObjectDBX Classes
 90
     4095
 91
       16
280
     0
281
     0
  0
CLASS
  1
SORTENTSTABLE
  2
AcDbSortentsTable
  3
ObjectDBX Classes
 90
        0
 91
        7
280
     0
281
     0
  0
ENDSEC
  0
SECTION
  2
TABLES
  0
TABLE
  2
VPORT
  5
8
330
0
100
AcDbSymbolTable
 70
     1
  0
VPORT
  5
EA
330
8
100
AcDbSymbolTableRecord
100
AcDbViewportTableRecord
  2
*Active
 70
     0
 10
0.0
 20
0.0
 11
1.0
 21
1.0
 12
872.9793726754813
 22
876.6169465738697
 13
0.0
 23
0.0
 14
10.0
 24
10.0
 15
10.0
 25
10.0
 16
0.0
 26
0.0
 36
1.0
 17
0.0
 27
0.0
 37
0.0
 40
67.77086053204745
 41
1.457978075517661
 42
50.0
 43
0.0
 44
0.0
 50
0.0
 51
0.0
 71
     0
 72
  1000
 73
     1
 74
     3
 75
     0
 76
     0
 77
     0
 78
     0
281
     0
 65
     1
110
0.0
120
0.0
130
0.0
111
1.0
121
0.0
131
0.0
112
0.0
122
1.0
132
0.0
 79
     0
146
0.0
348
F5
 60
     2
 61
     5
292
     1
282
     1
141
0.0
142
0.0
 63
   250
421
  3355443
  0
ENDTAB
  0
TABLE
  2
LTYPE
  5
5
330
0
100
AcDbSymbolTable
 70
     1
  0
LTYPE
  5
14
330
5
100
AcDbSymbolTableRecord
100
AcDbLinetypeTableRecord
  2
ByBlock
 70
     0
  3

 72
    65
 73
     0
 40
0.0
  0
LTYPE
  5
15
330
5
100
AcDbSymbolTableRecord
100
AcDbLinetypeTableRecord
  2
ByLayer
 70
     0
  3

 72
    65
 73
     0
 40
0.0
  0
LTYPE
  5
16
330
5
100
AcDbSymbolTableRecord
100
AcDbLinetypeTableRecord
  2
Continuous
 70
     0
  3
Solid line
 72
    65
 73
     0
 40
0.0
  0
ENDTAB
  0
TABLE
  2
LAYER
  5
2
102
{ACAD_XDICTIONARY
360
113
102
}
330
0
100
AcDbSymbolTable
 70
    15
  0
LAYER
  5
10
330
2
100
AcDbSymbolTableRecord
100
AcDbLayerTableRecord
  2
0
 70
     0
 62
     7
  6
Continuous
370
    -3
390
F
347
EE
  0
LAYER
  5
10F
330
2
100
AcDbSymbolTableRecord
100
AcDbLayerTableRecord
  2
Lorient text
 70
     0
 62
   252
  6
Continuous
370
    -3
390
F
347
EE
1001
AcAecLayerStandard
1000

1000

  0
LAYER
  5
111
330
2
100
AcDbSymbolTableRecord
100
AcDbLayerTableRecord
  2
Lorient dimension
 70
     0
 62
   252
  6
Continuous
370
    -3
390
F
347
EE
1001
AcAecLayerStandard
1000

1000

  0
LAYER
  5
112
330
2
100
AcDbSymbolTableRecord
100
AcDbLayerTableRecord
  2
Lorient profile
 70
     0
 62
   250
  6
Continuous
370
    -3
390
F
347
EE
1001
AcAecLayerStandard
1000

1000

  0
LAYER
  5
243
330
2
100
AcDbSymbolTableRecord
100
AcDbLayerTableRecord
  2
Defpoints
 70
     0
 62
     7
  6
Continuous
290
     0
370
    -3
390
F
347
EE
  0
ENDTAB
  0
TABLE
  2
STYLE
  5
3
330
0
100
AcDbSymbolTable
 70
     9
  0
STYLE
  5
11
330
3
100
AcDbSymbolTableRecord
100
AcDbTextStyleTableRecord
  2
Standard
 70
     0
 40
0.0
 41
1.0
 50
0.0
 71
     0
 42
2.5
  3
txt
  4

  0
STYLE
  5
116
330
3
100
AcDbSymbolTableRecord
100
AcDbTextStyleTableRecord
  2
Lorient
 70
     0
 40
0.0
 41
1.0
 50
0.0
 71
     0
 42
2.5
  3
utsaah.ttf
  4

1001
ACAD
1000
Utsaah
1071
       34
  0
ENDTAB
  0
TABLE
  2
VIEW
  5
6
330
0
100
AcDbSymbolTable
 70
     0
  0
ENDTAB
  0
TABLE
  2
UCS
  5
7
330
0
100
AcDbSymbolTable
 70
     0
  0
ENDTAB
  0
TABLE
  2
APPID
  5
9
330
0
100
AcDbSymbolTable
 70
     3
  0
APPID
  5
12
330
9
100
AcDbSymbolTableRecord
100
AcDbRegAppTableRecord
  2
ACAD
 70
     0
  0
APPID
  5
9E
330
9
100
AcDbSymbolTableRecord
100
AcDbRegAppTableRecord
  2
ACAD_PSEXT
 70
     0
  0
APPID
  5
110
330
9
100
AcDbSymbolTableRecord
100
AcDbRegAppTableRecord
  2
AcAecLayerStandard
 70
     0
  0
ENDTAB
  0
TABLE
  2
DIMSTYLE
  5
A
330
0
100
AcDbSymbolTable
 70
    27
100
AcDbDimStyleTable
 71
     2
340
11A
340
246
  0
DIMSTYLE
105
11A
102
{ACAD_REACTORS
330
11D6
330
11D5
102
}
330
A
100
AcDbSymbolTableRecord
100
AcDbDimStyleTableRecord
  2
Lorient
 70
     0
 41
1.0
 42
0.5
 43
3.75
 44
0.5
 73
     0
 74
     0
 77
     1
 78
     8
140
1.5
141
2.5
143
0.03937007874016
147
0.5
171
     3
172
     1
271
     2
272
     2
274
     3
283
     0
284
     8
340
116
  0
DIMSTYLE
105
246
330
A
100
AcDbSymbolTableRecord
100
AcDbDimStyleTableRecord
  2
STANDARD
 70
     0
 40
0.1999999999999997
 41
3.0
 42
3.0
 43
10.0
 44
3.0
 48
0.000000001
 73
     0
 78
     8
140
3.999999999999999
141
3.0
145
1.0
146
0.6666666666666666
147
2.0
172
     1
176
     8
178
     8
271
     2
272
     2
284
     8
288
     1
289
     0
340
116
  0
ENDTAB
  0
TABLE
  2
BLOCK_RECORD
  5
1
330
0
100
AcDbSymbolTable
 70
    36
  0
BLOCK_RECORD
  5
1F
102
{ACAD_XDICTIONARY
360
1D7
102
}
330
1
100
AcDbSymbolTableRecord
100
AcDbBlockTableRecord
  2
*Model_Space
340
22
 70
     0
280
     1
281
     0
  0
BLOCK_RECORD
  5
D2
330
1
100
AcDbSymbolTableRecord
100
AcDbBlockTableRecord
  2
*Paper_Space
340
D3
 70
     0
280
     1
281
     0
  0
BLOCK_RECORD
  5
D6
330
1
100
AcDbSymbolTableRecord
100
AcDbBlockTableRecord
  2
*Paper_Space0
340
D7
 70
     0
280
     1
281
     0
  0
BLOCK_RECORD
  5
1257
330
1
100
AcDbSymbolTableRecord
100
AcDbBlockTableRecord
  2
*D34
340
0
 70
     0
280
     1
281
     0
  0
BLOCK_RECORD
  5
1263
330
1
100
AcDbSymbolTableRecord
100
AcDbBlockTableRecord
  2
*D35
340
0
 70
     0
280
     1
281
     0
  0
ENDTAB
  0
ENDSEC
  0
SECTION
  2
BLOCKS
  0
BLOCK
  5
20
330
1F
100
AcDbEntity
  8
0
100
AcDbBlockBegin
  2
*Model_Space
 70
     0
 10
0.0
 20
0.0
 30
0.0
  3
*Model_Space
  1

  0
ENDBLK
  5
21
330
1F
100
AcDbEntity
  8
0
100
AcDbBlockEnd
  0
BLOCK
  5
D4
330
D2
100
AcDbEntity
 67
     1
  8
0
100
AcDbBlockBegin
  2
*Paper_Space
 70
     0
 10
0.0
 20
0.0
 30
0.0
  3
*Paper_Space
  1

  0
ENDBLK
  5
D5
330
D2
100
AcDbEntity
 67
     1
  8
0
100
AcDbBlockEnd
  0
BLOCK
  5
D8
330
D6
100
AcDbEntity
 67
     1
  8
0
100
AcDbBlockBegin
  2
*Paper_Space0
 70
     0
 10
0.0
 20
0.0
 30
0.0
  3
*Paper_Space0
  1

  0
ENDBLK
  5
D9
330
D6
100
AcDbEntity
 67
     1
  8
0
100
AcDbBlockEnd
  0
BLOCK
  5
1261
330
1257
100
AcDbEntity
  8
0
100
AcDbBlockBegin
  2
*D34
 70
     1
 10
0.0
 20
0.0
 30
0.0
  3
*D34
  1

  0
LINE
  5
12C9
330
1257
100
AcDbEntity
  8
Lorient dimension
 62
     0
 48
100.0
370
    -2
100
AcDbLine
 10
858.6949484344545
 20
860.5345541171118
 30
0.0
 11
858.6949484344545
 21
854.3515191901164
 31
0.0
  0
LINE
  5
12CA
330
1257
100
AcDbEntity
  8
Lorient dimension
 62
     0
 48
100.0
370
    -2
100
AcDbLine
 10
878.6831348184545
 20
860.5345541171118
 30
0.0
 11
878.6831348184545
 21
854.3515191901164
 31
0.0
  0
LINE
  5
12CB
330
1257
100
AcDbEntity
  8
Lorient dimension
 62
     0
 48
100.0
370
    -2
100
AcDbLine
 10
859.6949484344545
 20
854.8515191901165
 30
0.0
 11
877.6831348184545
 21
854.8515191901165
 31
0.0
  0
SOLID
  5
12CC
330
1257
100
AcDbEntity
  8
Lorient dimension
 62
     0
 48
100.0
100
AcDbTrace
 10
859.6949484344545
 20
855.0181858567832
 30
0.0
 11
859.6949484344545
 21
854.6848525234498
 31
0.0
 12
858.6949484344545
 22
854.8515191901165
 32
0.0
 13
858.6949484344545
 23
854.8515191901165
 33
0.0
  0
SOLID
  5
12CD
330
1257
100
AcDbEntity
  8
Lorient dimension
 62
     0
 48
100.0
100
AcDbTrace
 10
877.6831348184545
 20
855.0181858567832
 30
0.0
 11
877.6831348184545
 21
854.6848525234498
 31
0.0
 12
878.6831348184545
 22
854.8515191901165
 32
0.0
 13
878.6831348184545
 23
854.8515191901165
 33
0.0
  0
MTEXT
  5
12CE
330
1257
100
AcDbEntity
  8
Lorient dimension
 62
     0
 48
100.0
100
AcDbMText
 10
868.7737579674829
 20
856.1172334758307
 30
0.0
 40
1.5
 41
0.0
 46
0.0
 71
     5
 72
     1
  1
20.0
  7
Lorient
 73
     1
 44
1.0
  0
POINT
  5
12CF
330
1257
100
AcDbEntity
  8
Defpoints
 62
     0
 48
100.0
100
AcDbPoint
 10
858.6949484344545
 20
861.0345541171119
 30
0.0
  0
POINT
  5
12D0
330
1257
100
AcDbEntity
  8
Defpoints
 62
     0
 48
100.0
100
AcDbPoint
 10
878.6831348184545
 20
861.0345541171119
 30
0.0
  0
POINT
  5
12D1
330
1257
100
AcDbEntity
  8
Defpoints
 62
     0
 48
100.0
100
AcDbPoint
 10
878.6831348184545
 20
854.8515191901165
 30
0.0
  0
ENDBLK
  5
1262
330
1257
100
AcDbEntity
  8
0
100
AcDbBlockEnd
  0
BLOCK
  5
126D
330
1263
100
AcDbEntity
  8
0
100
AcDbBlockBegin
  2
*D35
 70
     1
 10
0.0
 20
0.0
 30
0.0
  3
*D35
  1

  0
LINE
  5
12C0
330
1263
100
AcDbEntity
  8
Lorient dimension
 62
     0
 48
100.0
370
    -2
100
AcDbLine
 10
879.1831348184544
 20
861.0345541171119
 30
0.0
 11
884.2722177937915
 21
861.0345541171119
 31
0.0
  0
LINE
  5
12C1
330
1263
100
AcDbEntity
  8
Lorient dimension
 62
     0
 48
100.0
370
    -2
100
AcDbLine
 10
879.1831348184544
 20
891.0345541171119
 30
0.0
 11
884.2722177937915
 21
891.0345541171119
 31
0.0
  0
LINE
  5
12C2
330
1263
100
AcDbEntity
  8
Lorient dimension
 62
     0
 48
100.0
370
    -2
100
AcDbLine
 10
883.7722177937914
 20
862.0345541171118
 30
0.0
 11
883.7722177937914
 21
890.034554117112
 31
0.0
  0
SOLID
  5
12C3
330
1263
100
AcDbEntity
  8
Lorient dimension
 62
     0
 48
100.0
100
AcDbTrace
 10
883.6055511271249
 20
862.0345541171118
 30
0.0
 11
883.9388844604581
 21
862.0345541171118
 31
0.0
 12
883.7722177937914
 22
861.0345541171119
 32
0.0
 13
883.7722177937914
 23
861.0345541171119
 33
0.0
  0
SOLID
  5
12C4
330
1263
100
AcDbEntity
  8
Lorient dimension
 62
     0
 48
100.0
100
AcDbTrace
 10
883.6055511271249
 20
890.034554117112
 30
0.0
 11
883.9388844604581
 21
890.034554117112
 31
0.0
 12
883.7722177937914
 22
891.0345541171119
 32
0.0
 13
883.7722177937914
 23
891.0345541171119
 33
0.0
  0
MTEXT
  5
12C5
330
1263
100
AcDbEntity
  8
Lorient dimension
 62
     0
 48
100.0
100
AcDbMText
 10
882.5057892223625
 20
876.2910239296385
 30
0.0
 40
1.5
 41
0.0
 46
0.0
 71
     5
 72
     1
  1
30.0
  7
Lorient
 11
0.0000000000000001
 21
1.0
 31
0.0
 73
     1
 44
1.0
  0
POINT
  5
12C6
330
1263
100
AcDbEntity
  8
Defpoints
 62
     0
 48
100.0
100
AcDbPoint
 10
878.6831348184545
 20
861.0345541171119
 30
0.0
  0
POINT
  5
12C7
330
1263
100
AcDbEntity
  8
Defpoints
 62
     0
 48
100.0
100
AcDbPoint
 10
878.6831348184545
 20
891.0345541171119
 30
0.0
  0
POINT
  5
12C8
330
1263
100
AcDbEntity
  8
Defpoints
 62
     0
 48
100.0
100
AcDbPoint
 10
883.7722177937914
 20
891.0345541171119
 30
0.0
  0
ENDBLK
  5
126E
330
1263
100
AcDbEntity
  8
0
100
AcDbBlockEnd
  0
ENDSEC
  0
SECTION
  2
ENTITIES
  0
MTEXT
  5
4D6
330
1F
100
AcDbEntity
  8
Lorient text
100
AcDbMText
 10
859.435692492288
 20
897.5132521016943
 30
0.0
 40
2.0
 41
27.52483034105353
 46
0.0
 71
     1
 72
     5
  1
{\fUtsaah|b1|i0|c0|p34;\LLAS8040}
  7
Lorient
 73
     1
 44
1.0
  0
DIMENSION
  5
11D5
330
1F
100
AcDbEntity
  8
Lorient dimension
 48
100.0
100
AcDbDimension
  2
*D34
 10
878.6831348184545
 20
854.8515191901165
 30
0.0
 11
868.7737579674829
 21
854.8515191901165
 31
0.0
 70
   160
  1
20.0
 71
     5
 42
19.98818638399996
 73
     0
 74
     0
 75
     0
  3
Lorient
100
AcDbAlignedDimension
 13
858.6949484344545
 23
861.0345541171119
 33
0.0
 14
878.6831348184545
 24
861.0345541171119
 34
0.0
100
AcDbRotatedDimension
  0
DIMENSION
  5
11D6
330
1F
100
AcDbEntity
  8
Lorient dimension
 48
100.0
100
AcDbDimension
  2
*D35
 10
883.7722177937914
 20
891.0345541171119
 30
0.0
 11
883.7722177937912
 21
876.2910239296385
 31
0.0
 70
   160
  1
30.0
 71
     5
 42
30.00000000000011
 73
     0
 74
     0
 75
     0
  3
Lorient
100
AcDbAlignedDimension
 13
878.6831348184545
 23
861.0345541171119
 33
0.0
 14
878.6831348184545
 24
891.0345541171119
 34
0.0
 50
90.0
100
AcDbRotatedDimension
  0
SPLINE
  5
1208
330
1F
100
AcDbEntity
  8
Lorient profile
  6
Continuous
 62
     7
370
    15
100
AcDbSpline
210
0.0
220
0.0
230
1.0
 70
     8
 71
     3
 72
     8
 73
     4
 74
     0
 42
0.0000000001
 43
0.0000000001
 40
0.0
 40
0.0
 40
0.0
 40
0.0
 40
1.0
 40
1.0
 40
1.0
 40
1.0
 10
861.7901262453317
 20
861.9675298301329
 30
0.0
 10
863.6810928389667
 20
860.1550029702147
 30
0.0
 10
865.9785111639139
 20
859.3348277673451
 30
0.0
 10
868.682381220173
 20
859.507004221524
 30
0.0
  0
SPLINE
  5
120A
330
1F
100
AcDbEntity
  8
Lorient profile
  6
Continuous
 62
     7
370
    15
100
AcDbSpline
210
0.0
220
0.0
230
1.0
 70
     8
 71
     3
 72
     8
 73
     4
 74
     0
 42
0.0000000001
 43
0.0000000001
 40
0.0
 40
0.0
 40
0.0
 40
0.0
 40
1.0
 40
1.0
 40
1.0
 40
1.0
 10
869.612245308888
 20
865.6565308270476
 30
0.0
 10
869.3827531548311
 20
865.7013590886458
 30
0.0
 10
869.2478663301768
 20
865.841092204122
 30
0.0
 10
869.2075848349258
 20
866.0757301734758
 30
0.0
  0
SPLINE
  5
120B
330
1F
100
AcDbEntity
  8
Lorient profile
  6
Continuous
 62
     7
370
    15
100
AcDbSpline
210
0.0
220
0.0
230
1.0
 70
     8
 71
     3
 72
     8
 73
     4
 74
     0
 42
0.0000000001
 43
0.0000000001
 40
0.0
 40
0.0
 40
0.0
 40
0.0
 40
1.0
 40
1.0
 40
1.0
 40
1.0
 10
874.8154456485156
 20
863.5627241811992
 30
0.0
 10
873.2987532745857
 20
864.7625858156128
 30
0.0
 10
871.5643531613764
 20
865.4605213642289
 30
0.0
 10
869.612245308888
 20
865.6565308270476
 30
0.0
  0
SPLINE
  5
120C
330
1F
100
AcDbEntity
  8
Lorient profile
  6
Continuous
 62
     7
370
    15
100
AcDbSpline
210
0.0
220
0.0
230
1.0
 70
     8
 71
     3
 72
     9
 73
     5
 74
     0
 42
0.0000000001
 43
0.0000000001
 40
0.0
 40
0.0
 40
0.0
 40
0.0
 40
0.3343749812565552
 40
1.0
 40
1.0
 40
1.0
 40
1.0
 10
873.8644703329509
 20
870.4503977826112
 30
0.0
 10
873.9902915953695
 20
870.196908033729
 30
0.0
 10
873.6732451193663
 20
866.8330619439766
 30
0.0
 10
874.1619839739815
 20
864.9664694986132
 30
0.0
 10
874.8154456485156
 20
863.5627241811992
 30
0.0
  0
SPLINE
  5
120D
330
1F
100
AcDbEntity
  8
Lorient profile
  6
Continuous
 62
     7
370
    15
100
AcDbSpline
210
0.0
220
0.0
230
1.0
 70
     8
 71
     3
 72
     8
 73
     4
 74
     0
 42
0.0000000001
 43
0.0000000001
 40
0.0
 40
0.0
 40
0.0
 40
0.0
 40
1.0
 40
1.0
 40
1.0
 40
1.0
 10
869.8412615723659
 20
872.1699508475738
 30
0.0
 10
871.7946590042698
 20
872.4917645225358
 30
0.0
 10
873.1357285911313
 20
871.9185801675484
 30
0.0
 10
873.8644703329509
 20
870.4503977826112
 30
0.0
  0
SPLINE
  5
1211
330
1F
100
AcDbEntity
  8
Lorient profile
  6
Continuous
 62
     7
370
    15
100
AcDbSpline
210
0.0
220
0.0
230
1.0
 70
     8
 71
     3
 72
     8
 73
     4
 74
     0
 42
0.0000000001
 43
0.0000000001
 40
0.0
 40
0.0
 40
0.0
 40
0.0
 40
1.0
 40
1.0
 40
1.0
 40
1.0
 10
867.7525171314581
 20
865.6565308270476
 30
0.0
 10
867.982009285515
 20
865.7013590886458
 30
0.0
 10
868.1168961101692
 20
865.841092204122
 30
0.0
 10
868.1571776054202
 20
866.0757301734758
 30
0.0
  0
SPLINE
  5
1212
330
1F
100
AcDbEntity
  8
Lorient profile
  6
Continuous
 62
     7
370
    15
100
AcDbSpline
210
0.0
220
0.0
230
1.0
 70
     8
 71
     3
 72
     8
 73
     4
 74
     0
 42
0.0000000001
 43
0.0000000001
 40
0.0
 40
0.0
 40
0.0
 40
0.0
 40
1.0
 40
1.0
 40
1.0
 40
1.0
 10
874.8154456485156
 20
862.5735241910344
 30
0.0
 10
873.1432341564193
 20
860.9659286488572
 30
0.0
 10
871.0988793469718
 20
860.2020464342301
 30
0.0
 10
868.682381220173
 20
860.2818775471531
 30
0.0
  0
SPLINE
  5
1219
330
1F
100
AcDbEntity
  8
Lorient profile
  6
Continuous
 62
     7
370
    15
100
AcDbSpline
210
0.0
220
0.0
230
1.0
 70
     8
 71
     3
 72
     8
 73
     4
 74
     0
 42
0.0000000001
 43
0.0000000001
 40
0.0
 40
0.0
 40
0.0
 40
0.0
 40
1.0
 40
1.0
 40
1.0
 40
1.0
 10
867.5235008679798
 20
872.1699508475738
 30
0.0
 10
865.5701034360761
 20
872.491764522536
 30
0.0
 10
864.2290338492149
 20
871.9185801675484
 30
0.0
 10
863.5002921073951
 20
870.4503977826112
 30
0.0
  0
SPLINE
  5
121A
330
1F
100
AcDbEntity
  8
Lorient profile
  6
Continuous
 62
     7
370
    15
100
AcDbSpline
210
0.0
220
0.0
230
1.0
 70
     8
 71
     3
 72
     9
 73
     5
 74
     0
 42
0.0000000001
 43
0.0000000001
 40
0.0
 40
0.0
 40
0.0
 40
0.0
 40
0.3343749812565552
 40
1.0
 40
1.0
 40
1.0
 40
1.0
 10
863.5002921073951
 20
870.4503977826112
 30
0.0
 10
863.3744708449764
 20
870.196908033729
 30
0.0
 10
863.6915173209796
 20
866.8330619439766
 30
0.0
 10
863.2027784663646
 20
864.9664694986132
 30
0.0
 10
862.5493167918305
 20
863.5627241811992
 30
0.0
  0
SPLINE
  5
121B
330
1F
100
AcDbEntity
  8
Lorient profile
  6
Continuous
 62
     7
370
    15
100
AcDbSpline
210
0.0
220
0.0
230
1.0
 70
     8
 71
     3
 72
     8
 73
     4
 74
     0
 42
0.0000000001
 43
0.0000000001
 40
0.0
 40
0.0
 40
0.0
 40
0.0
 40
1.0
 40
1.0
 40
1.0
 40
1.0
 10
862.5493167918305
 20
863.5627241811992
 30
0.0
 10
864.0660091657602
 20
864.7625858156128
 30
0.0
 10
865.8004092789697
 20
865.4605213642291
 30
0.0
 10
867.7525171314581
 20
865.6565308270476
 30
0.0
  0
SPLINE
  5
121C
330
1F
100
AcDbEntity
  8
Lorient profile
  6
Continuous
 62
     7
370
    15
100
AcDbSpline
210
0.0
220
0.0
230
1.0
 70
     8
 71
     3
 72
     8
 73
     4
 74
     0
 42
0.0000000001
 43
0.0000000001
 40
0.0
 40
0.0
 40
0.0
 40
0.0
 40
1.0
 40
1.0
 40
1.0
 40
1.0
 10
874.8154456485156
 20
862.5735241910344
 30
0.0
 10
873.0454643634001
 20
864.0054591514726
 30
0.0
 10
871.0011095539524
 20
864.7418635885951
 30
0.0
 10
868.682381220173
 20
864.7827375024021
 30
0.0
  0
SPLINE
  5
121D
330
1F
100
AcDbEntity
  8
Lorient profile
  6
Continuous
 62
     7
370
    15
100
AcDbSpline
210
0.0
220
0.0
230
1.0
 70
     8
 71
     3
 72
     8
 73
     4
 74
     0
 42
0.0000000001
 43
0.0000000001
 40
0.0
 40
0.0
 40
0.0
 40
0.0
 40
1.0
 40
1.0
 40
1.0
 40
1.0
 10
862.5493167918305
 20
862.5735241910344
 30
0.0
 10
864.3192980769459
 20
864.0054591514726
 30
0.0
 10
866.3636528863936
 20
864.7418635885951
 30
0.0
 10
868.682381220173
 20
864.7827375024021
 30
0.0
  0
SPLINE
  5
121E
330
1F
100
AcDbEntity
  8
Lorient profile
  6
Continuous
 62
     7
370
    15
100
AcDbSpline
210
0.0
220
0.0
230
1.0
 70
     8
 71
     3
 72
     8
 73
     4
 74
     0
 42
0.0000000001
 43
0.0000000001
 40
0.0
 40
0.0
 40
0.0
 40
0.0
 40
1.0
 40
1.0
 40
1.0
 40
1.0
 10
862.5493167918305
 20
862.5735241910344
 30
0.0
 10
864.2215282839265
 20
860.9659286488572
 30
0.0
 10
866.2658830933741
 20
860.2020464342301
 30
0.0
 10
868.682381220173
 20
860.2818775471531
 30
0.0
  0
SPLINE
  5
122B
330
1F
100
AcDbEntity
  8
Lorient profile
  6
Continuous
 62
     7
370
    15
100
AcDbSpline
210
0.0
220
0.0
230
1.0
 70
     8
 71
     3
 72
     8
 73
     4
 74
     0
 42
0.0000000001
 43
0.0000000001
 40
0.0
 40
0.0
 40
0.0
 40
0.0
 40
1.0
 40
1.0
 40
1.0
 40
1.0
 10
876.7486755465558
 20
861.6197057460381
 30
0.0
 10
876.3237202145669
 20
861.6220636082429
 30
0.0
 10
875.9323737640533
 20
861.7380049696079
 30
0.0
 10
875.5746361950141
 20
861.9675298301329
 30
0.0
  0
SPLINE
  5
122C
330
1F
100
AcDbEntity
  8
Lorient profile
  6
Continuous
 62
     7
370
    15
100
AcDbSpline
210
0.0
220
0.0
230
1.0
 70
     8
 71
     3
 72
     8
 73
     4
 74
     0
 42
0.0000000001
 43
0.0000000001
 40
0.0
 40
0.0
 40
0.0
 40
0.0
 40
1.0
 40
1.0
 40
1.0
 40
1.0
 10
875.5746361950141
 20
861.9675298301329
 30
0.0
 10
873.6836696013792
 20
860.1550029702147
 30
0.0
 10
871.3862512764322
 20
859.3348277673451
 30
0.0
 10
868.682381220173
 20
859.507004221524
 30
0.0
  0
SPLINE
  5
122D
330
1F
100
AcDbEntity
  8
Lorient profile
  6
Continuous
 62
     7
370
    15
100
AcDbSpline
210
0.0
220
0.0
230
1.0
 70
     8
 71
     3
 72
     8
 73
     4
 74
     0
 42
0.0000000001
 43
0.0000000001
 40
0.0
 40
0.0
 40
0.0
 40
0.0
 40
1.0
 40
1.0
 40
1.0
 40
1.0
 10
860.6160868937902
 20
861.6197057460381
 30
0.0
 10
861.0410422257789
 20
861.6220636082429
 30
0.0
 10
861.4323886762926
 20
861.7380049696079
 30
0.0
 10
861.7901262453317
 20
861.9675298301329
 30
0.0
  0
SPLINE
  5
1245
330
1F
100
AcDbEntity
  8
Lorient profile
  6
Continuous
 62
     7
370
    15
100
AcDbSpline
210
0.0
220
0.0
230
1.0
 70
    24
 71
     3
 72
    13
 73
     9
 74
     0
 42
0.0000000001
 43
0.0000000001
 40
0.0
 40
0.0
 40
0.0
 40
0.0
 40
0.0660845412391378
 40
0.2714584594323199
 40
0.4773944028796388
 40
0.6859827281542023
 40
0.8999402124060232
 40
1.0
 40
1.0
 40
1.0
 40
1.0
 10
866.4382938457109
 20
885.4369646790566
 30
0.0
 10
866.4394687326113
 20
885.4369646790566
 30
0.0
 10
866.4442948686781
 20
885.4369646790566
 30
0.0
 10
866.5175876437915
 20
885.4369646790566
 30
0.0
 10
866.7101911701225
 20
885.4369646790566
 30
0.0
 10
866.9864843276053
 20
885.4369646790566
 30
0.0
 10
867.2575635067703
 20
885.4369646790566
 30
0.0
 10
867.4249199404462
 20
885.4369646790566
 30
0.0
 10
867.4782471001519
 20
885.4369646790566
 30
0.0
  0
SPLINE
  5
1246
330
1F
100
AcDbEntity
  8
Lorient profile
  6
Continuous
 62
     7
370
    15
100
AcDbSpline
210
0.0
220
0.0
230
1.0
 70
    24
 71
     3
 72
    12
 73
     8
 74
     0
 42
0.0000000001
 43
0.0000000001
 40
0.0
 40
0.0
 40
0.0
 40
0.0
 40
0.1803382799716614
 40
0.4165252295284022
 40
0.6360652117519257
 40
0.8472735297550212
 40
1.0
 40
1.0
 40
1.0
 40
1.0
 10
870.3232987808355
 20
885.4369646790566
 30
0.0
 10
870.4195607286274
 20
885.4369646790566
 30
0.0
 10
870.6418958307764
 20
885.4369646790566
 30
0.0
 10
870.956218083146
 20
885.4369646790566
 30
0.0
 10
871.2074556439585
 20
885.4369646790566
 30
0.0
 10
871.3428267893464
 20
885.4369646790566
 30
0.0
 10
871.3572142771447
 20
885.4369646790566
 30
0.0
 10
871.3632520352765
 20
885.4369646790566
 30
0.0
  0
SPLINE
  5
1249
330
1F
100
AcDbEntity
  8
Lorient profile
  6
Continuous
 62
     7
370
    15
100
AcDbSpline
210
0.0
220
0.0
230
1.0
 70
    24
 71
     3
 72
    13
 73
     9
 74
     0
 42
0.0000000001
 43
0.0000000001
 40
0.0
 40
0.0
 40
0.0
 40
0.0
 40
0.0660845412393995
 40
0.2714584594325992
 40
0.4773944028799095
 40
0.6859827281544846
 40
0.8999402124063156
 40
1.0
 40
1.0
 40
1.0
 40
1.0
 10
871.3632520352765
 20
886.5087109275147
 30
0.0
 10
871.3620771483762
 20
886.5087109275147
 30
0.0
 10
871.3572510123094
 20
886.5087109275147
 30
0.0
 10
871.2839582371957
 20
886.5087109275147
 30
0.0
 10
871.0913547108647
 20
886.5087109275147
 30
0.0
 10
870.8150615533819
 20
886.5087109275147
 30
0.0
 10
870.5439823742167
 20
886.5087109275147
 30
0.0
 10
870.376625940541
 20
886.5087109275147
 30
0.0
 10
870.3232987808355
 20
886.5087109275147
 30
0.0
  0
SPLINE
  5
124A
330
1F
100
AcDbEntity
  8
Lorient profile
  6
Continuous
 62
     7
370
    15
100
AcDbSpline
210
0.0
220
0.0
230
1.0
 70
    24
 71
     3
 72
    12
 73
     8
 74
     0
 42
0.0000000001
 43
0.0000000001
 40
0.0
 40
0.0
 40
0.0
 40
0.0
 40
0.1803382799716562
 40
0.4165252295283994
 40
0.6360652117519253
 40
0.8472735297550205
 40
1.0
 40
1.0
 40
1.0
 40
1.0
 10
867.4782471001519
 20
886.5087109275147
 30
0.0
 10
867.3819851523601
 20
886.5087109275147
 30
0.0
 10
867.1596500502108
 20
886.5087109275147
 30
0.0
 10
866.8453277978414
 20
886.5087109275147
 30
0.0
 10
866.5940902370291
 20
886.5087109275147
 30
0.0
 10
866.4587190916414
 20
886.5087109275147
 30
0.0
 10
866.4443316038427
 20
886.5087109275147
 30
0.0
 10
866.4382938457109
 20
886.5087109275147
 30
0.0
  0
LWPOLYLINE
  5
12D2
330
1F
100
AcDbEntity
  8
Lorient profile
  6
Continuous
 62
     7
370
    15
100
AcDbPolyline
 90
        8
 70
     1
 43
0.0
 10
860.1949484344546
 20
861.0345541171119
 10
858.6949484344545
 20
861.0345541171119
 10
858.6949484344545
 20
891.0345541171118
 10
878.6831348184545
 20
891.0345541171118
 10
878.6831348184545
 20
861.0345541171119
 10
877.1831348184546
 20
861.0345541171119
 10
877.1831348184546
 20
888.9219154734119
 10
860.1949484344546
 20
888.9219154734119
  0
LWPOLYLINE
  5
12DA
330
1F
100
AcDbEntity
  8
Lorient profile
  6
Continuous
 62
     7
370
    15
100
AcDbPolyline
 90
        4
 70
     1
 43
0.0
 10
871.3632520352373
 20
885.4369646790821
 42
0.1075490923368325
 10
871.3632520352373
 20
886.5087109275416
 42
0.8057890289812553
 10
866.4382938456718
 20
886.5087109275416
 42
0.1075490923368328
 10
866.4382938456718
 20
885.4369646790821
 42
0.8057890289812554
  0
LWPOLYLINE
  5
12DC
330
1F
100
AcDbEntity
  8
Lorient profile
  6
Continuous
 62
     7
370
    15
100
AcDbPolyline
 90
        2
 70
     1
 43
0.0
 10
870.3232987807961
 20
885.4369646790821
 42
-0.6918950860220258
 10
867.4782471001545
 20
885.4369646790118
  0
LWPOLYLINE
  5
12DD
330
1F
100
AcDbEntity
  8
Lorient profile
  6
Continuous
 62
     7
370
    15
100
AcDbPolyline
 90
        2
 70
     1
 43
0.0
 10
870.3232987808545
 20
886.5087109275119
 10
867.478247100113
 20
886.5087109275416
 42
-0.6918950860220258
  0
LWPOLYLINE
  5
12E2
330
1F
100
AcDbEntity
  8
Lorient profile
  6
Continuous
 62
     7
370
    15
100
AcDbPolyline
 90
       10
 70
     1
 43
0.0
 10
863.7626000903544
 20
879.5336261949119
 10
863.7626000903544
 20
881.0520658248119
 10
864.2261285925544
 20
881.0520658248119
 10
864.2261285925544
 20
877.0855296488118
 10
863.7626000903544
 20
877.0855296488118
 10
863.7626000903544
 20
879.0687977368119
 10
860.9736293416544
 20
879.0687977368119
 10
860.9736293416544
 20
876.279826988012
 10
860.4933066015545
 20
876.279826988012
 10
860.4933066015545
 20
879.5336261949119
  0
LWPOLYLINE
  5
12EC
330
1F
100
AcDbEntity
  8
Lorient profile
  6
Continuous
 62
     7
370
    15
100
AcDbPolyline
 90
       10
 70
     1
 43
0.0
 10
876.3911330987546
 20
876.279826988012
 10
876.8714558387546
 20
876.279826988012
 10
876.8714558387546
 20
879.5336261949119
 10
873.6021623499544
 20
879.5336261949119
 10
873.6021623499544
 20
881.0520658248119
 10
873.1386338478545
 20
881.0520658248119
 10
873.1386338478545
 20
877.0855296488118
 10
873.6021623499544
 20
877.0855296488118
 10
873.6021623499544
 20
879.0687977368119
 10
876.3911330987546
 20
879.0687977368119
  0
LWPOLYLINE
  5
12F6
330
1F
100
AcDbEntity
  8
Lorient profile
  6
Continuous
 62
     7
370
    15
100
AcDbPolyline
 90
       18
 70
     0
 43
0.0
 10
860.6160868938349
 20
861.6197057460782
 42
0.1999066782634517
 10
862.6820230169821
 20
868.0281137543572
 42
-0.041399721232273
 10
862.6820230170492
 20
870.5475361833093
 42
-0.1630852113342744
 10
863.1104094891901
 20
871.5438437987803
 42
-0.2298952982546911
 10
866.5782974417682
 20
872.9671403923301
 42
0.4326341118390531
 10
867.7525171314545
 20
874.0701952523117
 10
867.7525171314545
 20
877.0855296488118
 10
866.5782974417545
 20
877.0855296488118
 10
866.5782974417545
 20
879.0687977368119
 10
870.7864649985545
 20
879.0687977368119
 10
870.7864649985545
 20
877.0855296488118
 10
869.6122453088545
 20
877.0855296488118
 10
869.6122453088827
 20
874.0701952523117
 42
0.4326341118390531
 10
870.786464998536
 20
872.9671403923058
 42
-0.229895298254691
 10
874.2543529511674
 20
871.5438437987756
 42
-0.1630852113342745
 10
874.6827394233269
 20
870.5475361832665
 42
-0.0413997212322728
 10
874.6827394233402
 20
868.0281137544454
 42
0.1999066782634518
 10
876.7486755465739
 20
861.6197057460782
  0
LWPOLYLINE
  5
1303
330
1F
100
AcDbEntity
  8
Lorient profile
  6
Continuous
 62
     7
370
    15
100
AcDbPolyline
 90
        3
 70
     0
 43
0.0
 10
868.1571776054544
 20
866.0757301735118
 10
868.1571776054335
 20
871.5438437988119
 42
0.417737743182946
 10
867.523500867993
 20
872.1699508476168
  0
LWPOLYLINE
  5
1305
330
1F
100
AcDbEntity
  8
Lorient profile
  6
Continuous
 62
     7
370
    15
100
AcDbPolyline
 90
        5
 70
     1
 43
0.0
 10
868.3990126239001
 20
873.2800294391118
 42
0.4275641188769408
 10
868.6823812201556
 20
873.0092330040108
 42
0.4275641188769408
 10
868.9657498164544
 20
873.2800294391118
 10
868.9657498164544
 20
877.0855296488118
 10
868.3990126239544
 20
877.0855296488118
  0
LWPOLYLINE
  5
130B
330
1F
100
AcDbEntity
  8
Lorient profile
  6
Continuous
 62
     7
370
    15
100
AcDbPolyline
 90
        3
 70
     0
 43
0.0
 10
869.841261572416
 20
872.1699508476168
 42
0.417737743182946
 10
869.2075848349546
 20
871.5438437988119
 10
869.2075848349546
 20
866.0757301735118
  0
LWPOLYLINE
  5
1310
330
1F
100
AcDbEntity
  8
Lorient profile
  6
Continuous
 62
     7
370
    15
100
AcDbPolyline
 90
       46
 70
     1
 43
0.0
 10
870.1592792847602
 20
874.3481548664119
 42
0.4142135623730951
 10
871.0823120522544
 20
873.4251220989118
 10
871.8178008349545
 20
873.4251220989118
 10
871.8178008349545
 20
874.7450514775119
 10
875.0185053080544
 20
874.7450514775119
 10
875.0185053080544
 20
867.0596979651119
 10
876.7486755465546
 20
867.0596979651119
 10
876.7486755465949
 20
874.7450514775119
 42
0.4142135623730951
 10
874.8154456485545
 20
876.6782813756119
 10
874.8154456485545
 20
878.1277910042119
 10
873.8644703329544
 20
878.1277910042119
 10
873.8644703329544
 20
876.6110624475118
 10
872.8459149591545
 20
876.6110624475118
 10
872.8459149591545
 20
881.6774076178118
 10
873.9908007603544
 20
881.6774076178118
 10
873.9908007603544
 20
879.9645667048119
 10
875.0185053080544
 20
879.9645667048119
 10
875.0185053080544
 20
881.6774076178118
 10
876.6285757662545
 20
881.6774076178118
 10
876.6285757662545
 20
883.2189644394118
 10
860.7361866740545
 20
883.2189644394118
 10
860.7361866740545
 20
881.6774076178118
 10
862.3462571322546
 20
881.6774076178118
 10
862.3462571322546
 20
879.9645667048119
 10
863.3739616800545
 20
879.9645667048119
 10
863.3739616800545
 20
881.6774076178118
 10
864.5188474811545
 20
881.6774076178118
 10
864.5188474811545
 20
876.6110624475118
 10
863.5002921073544
 20
876.6110624475118
 10
863.5002921073544
 20
878.1277910042119
 10
862.5493167918543
 20
878.1277910042119
 10
862.5493167918543
 20
876.6782813755522
 42
0.4142135623730951
 10
860.6160868937545
 20
874.7450514775119
 10
860.6160868937545
 20
867.0596979651119
 10
862.3462571322546
 20
867.0596979651119
 10
862.3462571322546
 20
874.7450514775119
 10
865.5469616053544
 20
874.7450514775119
 10
865.5469616053544
 20
873.4251220989118
 10
866.2824503880544
 20
873.4251220989177
 42
0.4142135623730951
 10
867.2054831555545
 20
874.3481548664119
 10
867.2054831555545
 20
876.6782813756119
 10
866.1224589482545
 20
876.6782813756119
 10
866.1224589482545
 20
881.6774076178118
 10
871.2423034921545
 20
881.6774076178118
 10
871.2423034921545
 20
876.6782813756119
 10
870.1592792848545
 20
876.6782813756119
  0
ENDSEC
  0
SECTION
  2
OBJECTS
  0
DICTIONARY
  5
C
330
0
100
AcDbDictionary
281
     1
  3
ACAD_COLOR
350
6B
  3
ACAD_GROUP
350
D
  3
ACAD_LAYOUT
350
1A
  3
ACAD_MATERIAL
350
6A
  3
ACAD_MLINESTYLE
350
17
  3
ACAD_PLOTSETTINGS
350
19
  3
ACAD_PLOTSTYLENAME
350
E
  3
ACAD_TABLESTYLE
350
7E
  3
ACAD_VISUALSTYLE
350
EF
  3
AcDbVariableDictionary
350
5E
  0
DICTIONARY
  5
113
330
2
100
AcDbDictionary
280
     1
281
     1
  3
ACAD_LAYERFILTERS
360
115
  3
ACAD_LAYERSTATES
360
24B
  3
ACLYDICTIONARY
360
114
  0
DICTIONARY
  5
1D7
330
1F
100
AcDbDictionary
280
     1
281
     1
  3
ACAD_SORTENTS
360
1D8
  0
DICTIONARY
  5
6B
102
{ACAD_REACTORS
330
C
102
}
330
C
100
AcDbDictionary
281
     1
  0
DICTIONARY
  5
D
102
{ACAD_REACTORS
330
C
102
}
330
C
100
AcDbDictionary
281
     1
  0
DICTIONARY
  5
1A
102
{ACAD_REACTORS
330
C
102
}
330
C
100
AcDbDictionary
281
     1
  3
Layout1
350
D3
  3
Layout2
350
D7
  3
Model
350
22
  0
DICTIONARY
  5
6A
102
{ACAD_REACTORS
330
C
102
}
330
C
100
AcDbDictionary
281
     1
  3
ByBlock
350
ED
  3
ByLayer
350
EC
  3
Global
350
EE
  0
DICTIONARY
  5
17
102
{ACAD_REACTORS
330
C
102
}
330
C
100
AcDbDictionary
281
     1
  3
Standard
350
18
  0
DICTIONARY
  5
19
102
{ACAD_REACTORS
330
C
102
}
330
C
100
AcDbDictionary
281
     1
  0
ACDBDICTIONARYWDFLT
  5
E
102
{ACAD_REACTORS
330
C
102
}
330
C
100
AcDbDictionary
281
     1
  3
Normal
350
F
100
AcDbDictionaryWithDefault
340
F
  0
DICTIONARY
  5
7E
102
{ACAD_REACTORS
330
C
102
}
330
C
100
AcDbDictionary
281
     1
  3
Standard
350
7F
  0
DICTIONARY
  5
EF
102
{ACAD_REACTORS
330
C
102
}
330
C
100
AcDbDictionary
281
     1
  3
2dWireframe
350
F5
  3
3D Hidden
350
F7
  3
3dWireframe
350
F6
  3
Basic
350
F4
  3
Brighten
350
FB
  3
ColorChange
350
FF
  3
Conceptual
350
F8
  3
Dim
350
FA
  3
Facepattern
350
FE
  3
Flat
350
F0
  3
FlatWithEdges
350
F1
  3
Gouraud
350
F2
  3
GouraudWithEdges
350
F3
  3
Linepattern
350
FD
  3
Realistic
350
F9
  3
Thicken
350
FC
  0
DICTIONARY
  5
5E
102
{ACAD_REACTORS
330
C
102
}
330
C
100
AcDbDictionary
281
     1
  3
CTABLESTYLE
350
84
  3
DIMASSOC
350
5F
  3
HIDETEXT
350
63
  0
DICTIONARY
  5
115
102
{ACAD_REACTORS
330
113
102
}
330
113
100
AcDbDictionary
281
     1
  0
DICTIONARY
  5
24B
102
{ACAD_REACTORS
330
113
102
}
330
113
100
AcDbDictionary
281
     1
  0
DICTIONARY
  5
114
102
{ACAD_REACTORS
330
113
102
}
330
113
100
AcDbDictionary
281
     1
1001
ACAD
1000
<All
  0
SORTENTSTABLE
  5
1D8
102
{ACAD_REACTORS
330
1D7
102
}
330
1D7
100
AcDbSortentsTable
330
1F
331
120B
  5
12F2
331
124A
  5
1331
331
121B
  5
1302
331
122B
  5
1312
331
120C
  5
12F3
331
11D5
  5
11D5
331
121C
  5
1303
331
1310
  5
12EB
331
122C
  5
1313
331
120D
  5
12F4
331
11D6
  5
11D6
331
121D
  5
1304
331
12D2
  5
133D
331
12DA
  5
1335
331
12E2
  5
1329
331
122D
  5
1314
331
1245
  5
132C
331
4D6
  5
4D6
331
121E
  5
1305
331
1246
  5
132D
331
1303
  5
12FF
331
130B
  5
12F5
331
12DC
  5
1333
331
12EC
  5
131F
331
1208
  5
12EF
331
12DD
  5
1332
331
1211
  5
12F8
331
1219
  5
1300
331
1305
  5
12FD
331
12F6
  5
1315
331
120A
  5
12F1
331
1249
  5
1330
331
1212
  5
12F9
331
121A
  5
1301
  0
LAYOUT
  5
D3
102
{ACAD_REACTORS
330
1A
102
}
330
1A
100
AcDbPlotSettings
  1

  2
C:\Documents and Settings\basas\Application Data\Autodesk\AutoCAD 2005\R16.1\enu\plotters\Default Windows System Printer.pc3
  4

  6

 40
0.0
 41
0.0
 42
0.0
 43
0.0
 44
0.0
 45
0.0
 46
0.0
 47
0.0
 48
0.0
 49
0.0
140
0.0
141
0.0
142
1.0
143
1.0
 70
   688
 72
     0
 73
     0
 74
     5
  7

 75
    16
147
1.0
 76
     0
 77
     2
 78
   300
148
0.0
149
0.0
100
AcDbLayout
  1
Layout1
 70
     1
 71
     1
 10
0.0
 20
0.0
 11
12.0
 21
9.0
 12
0.0
 22
0.0
 32
0.0
 14
0.0
 24
0.0
 34
0.0
 15
0.0
 25
0.0
 35
0.0
146
0.0
 13
0.0
 23
0.0
 33
0.0
 16
1.0
 26
0.0
 36
0.0
 17
0.0
 27
1.0
 37
0.0
 76
     0
330
D2
  0
LAYOUT
  5
D7
102
{ACAD_REACTORS
330
1A
102
}
330
1A
100
AcDbPlotSettings
  1

  2
C:\Documents and Settings\basas\Application Data\Autodesk\AutoCAD 2005\R16.1\enu\plotters\Default Windows System Printer.pc3
  4

  6

 40
0.0
 41
0.0
 42
0.0
 43
0.0
 44
0.0
 45
0.0
 46
0.0
 47
0.0
 48
0.0
 49
0.0
140
0.0
141
0.0
142
1.0
143
1.0
 70
   688
 72
     0
 73
     0
 74
     5
  7

 75
    16
147
1.0
 76
     0
 77
     2
 78
   300
148
0.0
149
0.0
100
AcDbLayout
  1
Layout2
 70
     1
 71
     2
 10
0.0
 20
0.0
 11
12.0
 21
9.0
 12
0.0
 22
0.0
 32
0.0
 14
0.0
 24
0.0
 34
0.0
 15
0.0
 25
0.0
 35
0.0
146
0.0
 13
0.0
 23
0.0
 33
0.0
 16
1.0
 26
0.0
 36
0.0
 17
0.0
 27
1.0
 37
0.0
 76
     0
330
D6
  0
LAYOUT
  5
22
102
{ACAD_REACTORS
330
1A
102
}
330
1A
100
AcDbPlotSettings
  1

  2
none_device
  4
ISO_A4_(210.00_x_297.00_MM)
  6

 40
7.5
 41
20.0
 42
7.5
 43
20.0
 44
210.0
 45
297.0
 46
11.54999923706054
 47
-13.65000009536743
 48
0.0
 49
0.0
140
0.0
141
0.0
142
1.0
143
8.704084754739808
 70
 11952
 72
     1
 73
     0
 74
     0
  7

 75
     0
147
0.1148885871608098
 76
     0
 77
     2
 78
   300
148
0.0
149
0.0
100
AcDbLayout
  1
Model
 70
     1
 71
     0
 10
0.0
 20
0.0
 11
12.0
 21
9.0
 12
0.0
 22
0.0
 32
0.0
 14
0.0
 24
0.0
 34
0.0
 15
0.0
 25
0.0
 35
0.0
146
0.0
 13
0.0
 23
0.0
 33
0.0
 16
1.0
 26
0.0
 36
0.0
 17
0.0
 27
1.0
 37
0.0
 76
     0
330
1F
331
EA
1001
ACAD_PSEXT
1000
None
1000
None
1000
Not applicable
1000
The layout will not be plotted unless a new plotter configuration name is selected.
1070
     0
  0
MATERIAL
  5
ED
102
{ACAD_REACTORS
330
6A
102
}
330
6A
100
AcDbMaterial
  1
ByBlock
  0
MATERIAL
  5
EC
102
{ACAD_REACTORS
330
6A
102
}
330
6A
100
AcDbMaterial
  1
ByLayer
  0
MATERIAL
  5
EE
102
{ACAD_REACTORS
330
6A
102
}
330
6A
100
AcDbMaterial
  1
Global
  0
MLINESTYLE
  5
18
102
{ACAD_REACTORS
330
17
102
}
330
17
100
AcDbMlineStyle
  2
STANDARD
 70
     0
  3

 62
   256
 51
90.0
 52
90.0
 71
     2
 49
0.5
 62
   256
  6
BYLAYER
 49
-0.5
 62
   256
  6
BYLAYER
  0
ACDBPLACEHOLDER
  5
F
102
{ACAD_REACTORS
330
E
102
}
330
E
  0
TABLESTYLE
  5
7F
102
{ACAD_REACTORS
330
7E
102
}
330
7E
100
AcDbTableStyle
  3
Standard
 70
     0
 71
     0
 40
1.5
 41
1.5
280
     0
281
     0
  7
Standard
140
4.5
170
     2
 62
     0
 63
     7
283
     0
 90
      512
 91
        0
  1

274
    -2
284
     1
 64
     0
275
    -2
285
     1
 65
     0
276
    -2
286
     1
 66
     0
277
    -2
287
     1
 67
     0
278
    -2
288
     1
 68
     0
279
    -2
289
     1
 69
     0
  7
Standard
140
6.0
170
     5
 62
     0
 63
     7
283
     0
 90
      512
 91
        0
  1

274
    -2
284
     1
 64
     0
275
    -2
285
     1
 65
     0
276
    -2
286
     1
 66
     0
277
    -2
287
     1
 67
     0
278
    -2
288
     1
 68
     0
279
    -2
289
     1
 69
     0
  7
Standard
140
4.5
170
     5
 62
     0
 63
     7
283
     0
 90
      512
 91
        0
  1

274
    -2
284
     1
 64
     0
275
    -2
285
     1
 65
     0
276
    -2
286
     1
 66
     0
277
    -2
287
     1
 67
     0
278
    -2
288
     1
 68
     0
279
    -2
289
     1
 69
     0
  0
VISUALSTYLE
  5
F5
102
{ACAD_REACTORS
330
EF
102
}
330
EF
100
AcDbVisualStyle
  2
2dWireframe
 70
     4
 71
     0
 72
     2
 73
     1
 90
        0
 40
-0.6
 41
-30.0
 62
     5
 63
     7
421
 16777215
 74
     1
 91
        4
 64
     7
 65
   257
 75
     1
175
     1
 42
1.0
 92
        0
 66
   257
 43
1.0
 76
     1
 77
     6
 78
     2
 67
     7
 79
     5
170
     0
171
     0
290
     0
174
     0
 93
        1
 44
0.0
173
     0
291
     0
 45
0.0
  0
VISUALSTYLE
  5
F7
102
{ACAD_REACTORS
330
EF
102
}
330
EF
100
AcDbVisualStyle
  2
3D Hidden
 70
     6
 71
     1
 72
     2
 73
     2
 90
        0
 40
-0.6
 41
-30.0
 62
     5
 63
     7
421
 16777215
 74
     2
 91
        2
 64
     7
 65
   257
 75
     2
175
     1
 42
40.0
 92
        0
 66
   257
 43
1.0
 76
     1
 77
     6
 78
     2
 67
     7
 79
     3
170
     0
171
     0
290
     0
174
     0
 93
        1
 44
0.0
173
     0
291
     0
 45
0.0
  0
VISUALSTYLE
  5
F6
102
{ACAD_REACTORS
330
EF
102
}
330
EF
100
AcDbVisualStyle
  2
3dWireframe
 70
     5
 71
     0
 72
     2
 73
     1
 90
        0
 40
-0.6
 41
-30.0
 62
     5
 63
     7
421
 16777215
 74
     1
 91
        4
 64
     7
 65
   257
 75
     1
175
     1
 42
1.0
 92
        0
 66
   257
 43
1.0
 76
     1
 77
     6
 78
     2
 67
     7
 79
     5
170
     0
171
     0
290
     0
174
     0
 93
        1
 44
0.0
173
     0
291
     0
 45
0.0
  0
VISUALSTYLE
  5
F4
102
{ACAD_REACTORS
330
EF
102
}
330
EF
100
AcDbVisualStyle
  2
Basic
 70
     7
 71
     1
 72
     0
 73
     1
 90
        0
 40
-0.6
 41
-30.0
 62
     5
 63
     7
421
 16777215
 74
     0
 91
        4
 64
     7
 65
   257
 75
     1
175
     1
 42
1.0
 92
        8
 66
     7
 43
1.0
 76
     1
 77
     6
 78
     2
 67
     7
 79
     5
170
     0
171
     0
290
     0
174
     0
 93
        1
 44
0.0
173
     0
291
     1
 45
0.0
  0
VISUALSTYLE
  5
FB
102
{ACAD_REACTORS
330
EF
102
}
330
EF
100
AcDbVisualStyle
  2
Brighten
 70
    12
 71
     2
 72
     2
 73
     1
 90
        0
 40
-0.6
 41
-30.0
 62
     5
 63
     7
421
 16777215
 74
     1
 91
        4
 64
     7
 65
   257
 75
     1
175
     1
 42
1.0
 92
        8
 66
     7
 43
1.0
 76
     1
 77
     6
 78
     2
 67
     7
 79
     5
170
     0
171
     0
290
     0
174
     0
 93
        1
 44
50.0
173
     0
291
     1
 45
0.0
  0
VISUALSTYLE
  5
FF
102
{ACAD_REACTORS
330
EF
102
}
330
EF
100
AcDbVisualStyle
  2
ColorChange
 70
    16
 71
     2
 72
     2
 73
     3
 90
        0
 40
-0.6
 41
-30.0
 62
     5
 63
     8
421
  8421504
 74
     1
 91
        4
 64
     7
 65
   257
 75
     1
175
     1
 42
1.0
 92
        8
 66
     8
424
  8421504
 43
1.0
 76
     1
 77
     6
 78
     2
 67
     7
 79
     5
170
     0
171
     0
290
     0
174
     0
 93
        1
 44
0.0
173
     0
291
     1
 45
0.0
  0
VISUALSTYLE
  5
F8
102
{ACAD_REACTORS
330
EF
102
}
330
EF
100
AcDbVisualStyle
  2
Conceptual
 70
     9
 71
     3
 72
     2
 73
     1
 90
        0
 40
-0.6
 41
-30.0
 62
     5
 63
     7
421
 16777215
 74
     2
 91
        2
 64
     7
 65
   257
 75
     1
175
     1
 42
40.0
 92
        8
 66
     7
 43
1.0
 76
     1
 77
     6
 78
     2
 67
     7
 79
     3
170
     0
171
     0
290
     0
174
     0
 93
        1
 44
0.0
173
     0
291
     0
 45
0.0
  0
VISUALSTYLE
  5
FA
102
{ACAD_REACTORS
330
EF
102
}
330
EF
100
AcDbVisualStyle
  2
Dim
 70
    11
 71
     2
 72
     2
 73
     1
 90
        0
 40
-0.6
 41
-30.0
 62
     5
 63
     7
421
 16777215
 74
     1
 91
        4
 64
     7
 65
   257
 75
     1
175
     1
 42
1.0
 92
        8
 66
     7
 43
1.0
 76
     1
 77
     6
 78
     2
 67
     7
 79
     5
170
     0
171
     0
290
     0
174
     0
 93
        1
 44
-50.0
173
     0
291
     1
 45
0.0
  0
VISUALSTYLE
  5
FE
102
{ACAD_REACTORS
330
EF
102
}
330
EF
100
AcDbVisualStyle
  2
Facepattern
 70
    15
 71
     2
 72
     2
 73
     1
 90
        0
 40
-0.6
 41
-30.0
 62
     5
 63
     7
421
 16777215
 74
     1
 91
        4
 64
     7
 65
   257
 75
     1
175
     1
 42
1.0
 92
        8
 66
     7
 43
1.0
 76
     1
 77
     6
 78
     2
 67
     7
 79
     5
170
     0
171
     0
290
     0
174
     0
 93
        1
 44
0.0
173
     0
291
     1
 45
0.0
  0
VISUALSTYLE
  5
F0
102
{ACAD_REACTORS
330
EF
102
}
330
EF
100
AcDbVisualStyle
  2
Flat
 70
     0
 71
     2
 72
     1
 73
     1
 90
        2
 40
-0.6
 41
30.0
 62
     5
 63
     7
421
 16777215
 74
     0
 91
        4
 64
     7
 65
   257
 75
     1
175
     1
 42
1.0
 92
        8
 66
     7
 43
1.0
 76
     1
 77
     6
 78
     2
 67
     7
 79
     5
170
     0
171
     0
290
     0
174
     0
 93
        1
 44
0.0
173
     0
291
     1
 45
0.0
  0
VISUALSTYLE
  5
F1
102
{ACAD_REACTORS
330
EF
102
}
330
EF
100
AcDbVisualStyle
  2
FlatWithEdges
 70
     1
 71
     2
 72
     1
 73
     1
 90
        2
 40
-0.6
 41
30.0
 62
     5
 63
     7
421
 16777215
 74
     1
 91
        4
 64
     7
 65
   257
 75
     1
175
     1
 42
1.0
 92
        0
 66
   257
 43
1.0
 76
     1
 77
     6
 78
     2
 67
     7
 79
     5
170
     0
171
     0
290
     0
174
     0
 93
        1
 44
0.0
173
     0
291
     1
 45
0.0
  0
VISUALSTYLE
  5
F2
102
{ACAD_REACTORS
330
EF
102
}
330
EF
100
AcDbVisualStyle
  2
Gouraud
 70
     2
 71
     2
 72
     2
 73
     1
 90
        2
 40
-0.6
 41
30.0
 62
     5
 63
     7
421
 16777215
 74
     0
 91
        4
 64
     7
 65
   257
 75
     1
175
     1
 42
1.0
 92
        0
 66
     7
 43
1.0
 76
     1
 77
     6
 78
     2
 67
     7
 79
     5
170
     0
171
     0
290
     0
174
     0
 93
        1
 44
0.0
173
     0
291
     1
 45
0.0
  0
VISUALSTYLE
  5
F3
102
{ACAD_REACTORS
330
EF
102
}
330
EF
100
AcDbVisualStyle
  2
GouraudWithEdges
 70
     3
 71
     2
 72
     2
 73
     1
 90
        2
 40
-0.6
 41
30.0
 62
     5
 63
     7
421
 16777215
 74
     1
 91
        4
 64
     7
 65
   257
 75
     1
175
     1
 42
1.0
 92
        0
 66
   257
 43
1.0
 76
     1
 77
     6
 78
     2
 67
     7
 79
     5
170
     0
171
     0
290
     0
174
     0
 93
        1
 44
0.0
173
     0
291
     1
 45
0.0
  0
VISUALSTYLE
  5
FD
102
{ACAD_REACTORS
330
EF
102
}
330
EF
100
AcDbVisualStyle
  2
Linepattern
 70
    14
 71
     2
 72
     2
 73
     1
 90
        0
 40
-0.6
 41
-30.0
 62
     5
 63
     7
421
 16777215
 74
     1
 91
        4
 64
     7
 65
   257
 75
     7
175
     7
 42
1.0
 92
        8
 66
     7
 43
1.0
 76
     1
 77
     6
 78
     2
 67
     7
 79
     5
170
     0
171
     0
290
     0
174
     0
 93
        1
 44
0.0
173
     0
291
     1
 45
0.0
  0
VISUALSTYLE
  5
F9
102
{ACAD_REACTORS
330
EF
102
}
330
EF
100
AcDbVisualStyle
  2
Realistic
 70
     8
 71
     2
 72
     2
 73
     1
 90
        0
 40
-0.6
 41
-30.0
 62
     5
 63
     7
421
 16777215
 74
     1
 91
        0
 64
     7
 65
   257
 75
     1
175
     1
 42
1.0
 92
        8
 66
     8
424
  7895160
 43
1.0
 76
     1
 77
     6
 78
     2
 67
     7
 79
     5
170
     0
171
     0
290
     0
174
     0
 93
       13
 44
0.0
173
     0
291
     0
 45
0.0
  0
VISUALSTYLE
  5
FC
102
{ACAD_REACTORS
330
EF
102
}
330
EF
100
AcDbVisualStyle
  2
Thicken
 70
    13
 71
     2
 72
     2
 73
     1
 90
        0
 40
-0.6
 41
-30.0
 62
     5
 63
     7
421
 16777215
 74
     1
 91
        4
 64
     7
 65
   257
 75
     1
175
     1
 42
1.0
 92
       12
 66
     7
 43
1.0
 76
     1
 77
     6
 78
     2
 67
     7
 79
     5
170
     0
171
     0
290
     0
174
     0
 93
        1
 44
0.0
173
     0
291
     1
 45
0.0
  0
DICTIONARYVAR
  5
84
102
{ACAD_REACTORS
330
5E
102
}
330
5E
100
DictionaryVariables
280
     0
  1
STANDARD
  0
DICTIONARYVAR
  5
5F
102
{ACAD_REACTORS
330
5E
102
}
330
5E
100
DictionaryVariables
280
     0
  1
2
  0
DICTIONARYVAR
  5
63
102
{ACAD_REACTORS
330
5E
102
}
330
5E
100
DictionaryVariables
280
     0
  1
1
  0
ENDSEC
  0
EOF
